Export vidéo en NTSC : comment ne pas entrelacer le rendu ?

Forum sur Openshot en français.

Moderator: Cenwen

Export vidéo en NTSC : comment ne pas entrelacer le rendu ?

Postby pdemong » Tue Mar 04, 2014 12:43 pm

Bonjour,

j'utilise la mini-chaine de production suivante pour mes vidéos :
- prise sur un camescope Sony avec des cassettes MiniDV, en NTSC (je vis au Québec) Widescreen
- capture en format dv2 avec "dvgrab", pour obtenir des AVI qui sont entrelacés et volumineux (environ 1G pour 5mn)
- réencodage en MP4, avec H264+AAC, pour ne pas trop perdre de la qualité et gagner de l'espace disque. J'utilise HandBrakeCLI, et je désentrelace dans la foulée.

Puis plus tard, quand j'ai le temps, je fais mon montage avec OpenShot et mes MP4. Et je viens de m'apercevoir d'un problème lors de l'export.
Parmi les choix d'export, j'avais la mauvaise habitude de prendre "DV/DVD WideScreen NTSC", avec un format mp4, un codec vidéo H264 et un codec audio AAC. Ce faisant, je me disais que je perdais le minimum de qualité par rapport à la vidéo d'origine.
Mais en faisant cela, je me retrouve avec une vidéo entrelacée.

Y a-t-il moyen d'avoir le même profil que "DV/DVD WideScreen NTSC" sans entrelacement ?
Mon but est de me faire des montages qui n'auront pas d'effet de peigne, que je les regarde sur une TV (via une Xbox) ou sur un ordi.

Merci pour votre aide et vos conseils.
Patrick
pdemong
New member
 
Posts: 13
Joined: Tue Feb 07, 2012 2:53 am

Re: Export vidéo en NTSC : comment ne pas entrelacer le rend

Postby pdemong » Tue Mar 04, 2014 12:48 pm

Voici des infos complémentaires.

Ma vidéos d'origine possède les caractéristiques suivantes :
Code: Select all
mediainfo ConfAIPE2014.02.26_18-23-22.mp4
General
Complete name                            : ConfAIPE2014.02.26_18-23-22.mp4
Format                                   : MPEG-4
Format profile                           : Base Media / Version 2
Codec ID                                 : mp42
File size                                : 463 MiB
Duration                                 : 58mn 53s
Overall bit rate mode                    : Variable
Overall bit rate                         : 1 099 Kbps
Encoded date                             : UTC 2014-03-01 22:08:57
Tagged date                              : UTC 2014-03-01 22:17:56
Writing application                      : HandBrake rev0 2013051899

Video
ID                                       : 1
Format                                   : AVC
Format/Info                              : Advanced Video Codec
Format profile                           : High@L3.0
Format settings, CABAC                   : Yes
Format settings, ReFrames                : 4 frames
Codec ID                                 : avc1
Codec ID/Info                            : Advanced Video Coding
Duration                                 : 58mn 53s
Bit rate                                 : 935 Kbps
Width                                    : 720 pixels
Height                                   : 400 pixels
Display aspect ratio                     : 16:9
Frame rate mode                          : Constant
Frame rate                               : 29.970 fps
Color space                              : YUV
Chroma subsampling                       : 4:2:0
Bit depth                                : 8 bits
Scan type                                : Progressive
Bits/(Pixel*Frame)                       : 0.108
Stream size                              : 394 MiB (85%)
Writing library                          : x264 core 130 r2273 b3065e6
Encoding settings                        : cabac=1 / ref=3 / deblock=1:0:0 / analyse=0x3:0x113 / me=hex / subme=7 / psy=1 / psy_rd=1.00:0.00 / mixed_ref=1 / me_range=16 / chroma_me=1 / trellis=1 / 8x8dct=1 / cqm=0 / deadzone=21,11 / fast_pskip=1 / chroma_qp_offset=-2 / threads=3 / lookahead_threads=1 / sliced_threads=0 / nr=0 / decimate=1 / interlaced=0 / bluray_compat=0 / constrained_intra=0 / bframes=3 / b_pyramid=2 / b_adapt=1 / b_bias=0 / direct=1 / weightb=1 / open_gop=0 / weightp=2 / keyint=300 / keyint_min=30 / scenecut=40 / intra_refresh=0 / rc_lookahead=40 / rc=crf / mbtree=1 / crf=20.0 / qcomp=0.60 / qpmin=0 / qpmax=69 / qpstep=4 / ip_ratio=1.40 / aq=1:1.00
Encoded date                             : UTC 2014-03-01 22:08:57
Tagged date                              : UTC 2014-03-02 00:54:49
Color primaries                          : BT.601-6 525, BT.1358 525, BT.1700 NTSC, SMPTE 170M
Transfer characteristics                 : BT.709-5, BT.1361
Matrix coefficients                      : BT.601-6 525, BT.1358 525, BT.1700 NTSC, SMPTE 170M

Audio
ID                                       : 2
Format                                   : AAC
Format/Info                              : Advanced Audio Codec
Format profile                           : LC
Codec ID                                 : 40
Duration                                 : 58mn 53s
Bit rate mode                            : Variable
Bit rate                                 : 160 Kbps
Maximum bit rate                         : 207 Kbps
Channel(s)                               : 2 channels
Channel positions                        : Front: L R
Sampling rate                            : 32.0 KHz
Compression mode                         : Lossy
Stream size                              : 67.4 MiB (15%)
Encoded date                             : UTC 2014-03-01 22:08:57
Tagged date                              : UTC 2014-03-02 00:54:49


Puis l'export d'Openshot me donne une vidéo comme ceci :
Code: Select all
mediainfo ConfAIPE-part1-minimontage.mp4
General
Complete name                            : ConfAIPE-part1-minimontage.mp4
Format                                   : MPEG-4
Format profile                           : Base Media
Codec ID                                 : isom
File size                                : 1.45 GiB
Duration                                 : 58mn 52s
Overall bit rate mode                    : Variable
Overall bit rate                         : 3 521 Kbps
Writing application                      : Lavf53.21.1

Video
ID                                       : 1
Format                                   : AVC
Format/Info                              : Advanced Video Codec
Format profile                           : High@L3.0
Format settings, CABAC                   : Yes
Format settings, ReFrames                : 3 frames
Codec ID                                 : avc1
Codec ID/Info                            : Advanced Video Coding
Duration                                 : 58mn 52s
Bit rate                                 : 3 387 Kbps
Nominal bit rate                         : 5 000 Kbps
Width                                    : 720 pixels
Height                                   : 480 pixels
Display aspect ratio                     : 16:9
Original display aspect ratio            : 16:9
Frame rate mode                          : Constant
Frame rate                               : 29.970 fps
Standard                                 : NTSC
Color space                              : YUV
Chroma subsampling                       : 4:2:0
Bit depth                                : 8 bits
Scan type                                : MBAFF
Bits/(Pixel*Frame)                       : 0.327
Stream size                              : 1.39 GiB (96%)
Writing library                          : x264 core 120 r2151 a3f4407
Encoding settings                        : cabac=1 / ref=3 / deblock=1:0:0 / analyse=0x3:0x113 / me=hex / subme=7 / psy=0 / mixed_ref=0 / me_range=16 / chroma_me=0 / trellis=1 / 8x8dct=1 / cqm=0 / deadzone=21,11 / fast_pskip=0 / chroma_qp_offset=0 / threads=3 / sliced_threads=0 / nr=0 / decimate=1 / interlaced=tff / bluray_compat=0 / constrained_intra=0 / bframes=3 / b_pyramid=0 / b_adapt=1 / b_bias=0 / direct=1 / weightb=0 / open_gop=1 / weightp=0 / keyint=250 / keyint_min=25 / scenecut=40 / intra_refresh=0 / rc=abr / mbtree=0 / bitrate=5000 / ratetol=1,0 / qcomp=0,60 / qpmin=10 / qpmax=51 / qpstep=4 / ip_ratio=1,25 / pb_ratio=1,25 / aq=1:1,00

Audio
ID                                       : 2
Format                                   : AAC
Format/Info                              : Advanced Audio Codec
Format profile                           : LC
Codec ID                                 : 40
Duration                                 : 58mn 52s
Bit rate mode                            : Variable
Bit rate                                 : 128 Kbps
Channel(s)                               : 2 channels
Channel positions                        : Front: L R
Sampling rate                            : 44.1 KHz
Compression mode                         : Lossy
Stream size                              : 54.0 MiB (4%)
pdemong
New member
 
Posts: 13
Joined: Tue Feb 07, 2012 2:53 am

Re: Export vidéo en NTSC : comment ne pas entrelacer le rend

Postby jpboussac » Wed Apr 30, 2014 11:26 pm

pdemong wrote:Y a-t-il moyen d'avoir le même profil que "DV/DVD WideScreen NTSC" sans entrelacement ?

Bonjour,

(j'espère que tu liras ma réponse un peu tardive, mais je débarque sur ce forum)

Avant de lancer ton rendu, tu vas dans "Éditer" =>"Préférences" => onglet "Profils" => tu sélectes "DV/DVD WideScreen NTSC" => tu cliques sur "'Gérer les profils" => tu cliques sur le + vert => tu coches "Progressif" => Tu donnes un nom à ce nouveau profil "DV/DVD WideScreen NTSC Progressif" par exemple... et tu peux même cocher la case pour en faire ton profil par défaut...

Bon usage

Jean-Paul
jpboussac
Forum regular
 
Posts: 33
Joined: Wed Apr 30, 2014 1:02 pm

Re: Export vidéo en NTSC : comment ne pas entrelacer le rend

Postby pdemong » Sat May 10, 2014 12:29 pm

Merci Jean-Paul pour ta réponse. J'avais trouvé cette méthode par un autre moyen, mais au moins c'est documenté en fr dans ce forum. J'avais oublié que j'avais posté ici mon problème... ;)
pdemong
New member
 
Posts: 13
Joined: Tue Feb 07, 2012 2:53 am


Return to Francais

Who is online

Users browsing this forum: No registered users